#TITLE:J219;
#SUBTITLE:Tony;
#ARTIST:Cranky;
#TITLETRANSLIT:;
#SUBTITLETRANSLIT:;
#ARTISTTRANSLIT:;
#CREDIT:Tony;
#BANNER:j219-bn.png;
#BACKGROUND:j219-bg.jpg;
#LYRICSPATH:;
#CDTITLE:j219.png;
#MUSIC:J219.ogg;
#OFFSET:0.000;
#SAMPLESTART:95.880;
#SAMPLELENGTH:11.900;
#SELECTABLE:YES;
#DISPLAYBPM:160.000;
#BPMS:0.000=160.000,4.000=319.999,10.500=160.000,76.000=319.999,82.500=160.000,83.938=-80.000,87.938=160.000;
#STOPS:4.000=0.180
,5.000=0.140
,5.750=0.060
,6.000=0.100
,6.500=0.080
,7.000=0.180
,8.000=0.100
,8.500=0.100
,9.000=0.100
,9.500=0.160
,76.000=0.200
,77.000=0.140
,77.750=0.040
,78.000=0.100
,78.500=0.100
,79.000=0.200
,80.000=0.100
,80.500=0.100
,81.000=0.100
,81.500=0.160
;
#BGCHANGES:;
// cache tags:
#FIRSTBEAT:4.000;
#LASTBEAT:313.000;
#SONGFILENAME:Songs/Music V.I.P ^_^/J219/J219.sm;
#HASMUSIC:1;
#HASBANNER:1;
#MUSICLENGTH:115.500;
// end cache tags

//---------------dance-single - ----------------
#NOTES:
     dance-single:
     :
     Hard:
     18:
     1.000,1.000,1.000,1.000,1.000,774.000,229.000,153.000,48.000,73.000:
0000
0000
0000
0000
,
2002
0000
0000
0000
3003
0000
0000
0000
2000
0000
0000
0000
3000
0000
1000
0100
0012
0000
0000
0000
1003
0000
0000
0000
2002
0000
0000
0000
3003
0000
0000
0000
,
0002
0000
2003
0000
3002
0000
2003
0000
3000
0000
1000
0100
1000
0100
0010
0001
,
1110
0000
0100
0010
0101
1000
0001
0010
1100
0000
0100
0010
1000
0000
0001
0000
,
0011
1000
0100
0001
1010
0000
1000
0000
0101
0010
0100
0000
1100
0000
0010
0000
,
0101
0010
1000
0000
1100
0000
0001
0100
0011
1000
0100
0010
1001
0000
0010
0000
,
1001
0010
0100
0000
1001
0000
0001
1000
0011
0100
0010
0000
1001
0000
1000
0100
,
1010
0001
0010
0000
0101
0000
0010
0001
1100
0010
1000
0000
1001
0000
0001
0000
,
0101
1000
0010
0000
0110
0000
0100
0010
1001
0010
0001
0000
0101
0000
1000
0001
,
1100
0010
0001
0000
0101
0000
0001
0100
1001
0100
0010
0000
1010
0000
1000
0010
,
1100
0001
0100
0010
0101
1000
0010
0001
1010
0100
0001
1000
0110
1001
0110
1000
,
0112
1000
0010
0100
0013
1000
0001
0010
0101
1000
0010
0100
0001
1000
0100
0010
,
0101
1000
0001
0010
0100
0010
0100
0001
1100
0010
0001
0100
1000
0100
0001
0100
,
1010
0001
0100
0010
1000
0100
0010
1000
0101
0010
1000
0001
0010
0001
0100
0010
,
1100
0001
0100
0010
1000
0001
0100
0010
1001
0010
0100
0001
0100
1000
0001
0010
,
1100
0001
0100
0010
1000
0001
0010
0100
0010
0100
1000
0001
0010
0001
0100
0010
,
0101
1000
0100
1000
0010
0001
0100
0010
1001
0100
0010
1000
0100
1000
0001
0100
,
0011
1000
0010
0100
1000
0001
0100
0001
0110
0001
0100
1000
0010
0100
1001
0010
,
0101
1000
0100
1000
0011
1000
0001
0010
1001
0010
0100
1000
0110
1000
0100
0010
,
2002
0000
0000
0000
3003
0000
0000
0000
2000
0000
0000
0000
3000
0000
1000
0100
0012
0000
0000
0000
1003
0000
0000
0000
2002
0000
0000
0000
3003
0000
0000
0000
,
0002
0000
2003
0000
3002
0000
2003
0000
3000
M000
0000
000M
0000
M000
0M00
00M0
,
M00M
0M00
00M0
0M00
00M0
000M
M000
00M0
0M0M
M000
00M0
M000
000M
0M00
00M0
0M00
,
M00M
0M00
00M0
M000
0M00
M000
00M0
000M
M0M0
000M
0M00
000M
00M0
0M00
00M0
M000
,
00MM
0000
0000
0000
0000
0000
0000
M000
0000
0000
000M
0000
0000
M000
0M00
00M0
,
1001
0100
0010
0100
0010
0001
1000
0010
0101
1000
0010
1000
0001
0100
0010
0100
,
1001
0100
0010
1000
0100
1000
0010
0001
1010
0001
0100
0001
0010
0100
0010
1000
,
0011
0100
0001
1000
0010
1000
0100
0010
1100
0001
0100
0010
0001
1000
0010
0100
,
1001
0100
0010
1000
0001
1000
0010
0100
0001
1000
0010
0100
0010
1000
0001
0100
,
1010
0100
0010
0001
1010
0100
0010
0100
1001
0010
0001
0100
1010
0100
0001
0100
,
1010
0100
0010
0100
1001
0010
0100
0001
1010
0001
0100
0010
1001
0010
0100
0010
,
1001
0100
0010
0100
1001
0100
0010
0100
1001
0010
0100
0010
1001
0100
0010
0100
,
2001
0001
0000
0001
0000
0001
0000
0001
,
3001
0001
0000
0100
0100
0000
0010
0010
0000
1000
1000
0000
0110
0000
0011
0000
,
1100
0010
0001
0100
1010
0001
0100
0010
1002
0000
0000
0000
1000
0000
0003
0000
,
1002
0000
0000
0000
1023
0000
0000
0032
0000
1000
0003
1000
0002
0000
0023
0000
,
1001
0130
0010
0100
1002
0000
0010
0103
0000
0100
0020
0000
1032
0000
0203
0000
,
1320
0000
0000
0000
1000
0000
0130
0010
1000
0010
0100
0001
1100
0010
0001
0100
,
1010
0100
0010
0002
1000
0100
0013
0000
0102
0000
0000
0000
1000
0000
0003
0000
,
1002
0000
0000
0000
1203
0000
0000
0302
0000
1000
0003
0001
0002
0000
0023
0000
,
1031
0100
0010
0100
1002
0000
0103
0010
0000
0010
0200
0000
1302
0000
0023
0000
,
2130
0000
0000
0000
0001
0000
0000
0000
0001
0010
0100
0010
0001
0000
0010
0001
,
3110
0000
0000
0000
0000
0000
0100
0000
1010
0000
0000
0001
0000
0000
0010
0000
,
1200
0000
0000
0000
0000
0000
1300
0000
1100
0000
0000
0100
0000
0000
0010
0000
,
1001
0000
2002
0000
0000
3003
2002
0000
0000
3003
0202
0000
0000
0000
0000
0303
,
0110
0000
0220
0000
0000
0330
0022
1000
0130
0013
2201
0010
0001
0000
3301
1000
,
0111
0000
0000
0000
0000
0000
1000
0000
1100
0000
0000
0001
0000
0000
0010
0000
,
0102
0000
0000
0000
0000
0000
0100
0000
1013
0000
0000
1000
0000
0000
0100
0000
,
1220
0000
0000
0000
1000
0330
0022
0000
1000
0000
0000
0033
2100
0000
0010
0001
,
0110
0001
0100
3010
1001
0000
1010
1100
0011
1000
0101
0010
1001
0000
0010
0100
,
1011
0000
1000
0100
0021
0000
1030
0100
0021
0000
0000
0030
0011
0000
0001
0000
,
1020
0000
0000
0000
1030
0000
0001
0000
1020
0000
0000
0030
2100
0000
0100
3000
,
0011
0000
0100
0010
1002
0000
0103
0010
1002
0000
0000
0003
1100
0000
0001
0000
,
1020
0000
0000
0030
1200
0000
0000
0300
1020
0001
1000
0130
1001
0000
0010
0100
,
1001
0000
0100
0010
1102
0000
0010
0103
2011
0000
0000
3000
1100
0000
0010
0000
,
0201
0000
0000
0000
1000
0300
0001
0000
0020
0000
0000
0000
1000
0000
0030
0000
,
0200
0000
0001
0000
1000
0000
0010
0001
1000
0001
0010
0000
1000
0000
0010
0000
,
1000
0000
0001
0000
1000
0000
0010
0001
1000
0010
1000
0000
1000
0000
0010
0000
,
1000
0000
0001
0000
1000
0000
0010
0010
1000
0010
0001
0000
1000
0000
0010
0000
,
1311
0001
0000
1010
0101
0000
1100
0011
0000
0110
1001
0000
1100
0000
0011
0000
,
0220
0000
0000
0330
0220
0000
0000
0330
2002
0000
0000
0000
0110
3003
2002
0000
,
0000
3003
2002
0000
0000
3003
0220
0000
1330
0100
2020
0001
0100
3030
0002
1000
,
0223
0000
0000
0330
0220
0000
0000
0330
2002
3003
0220
0330
2002
3003
2002
0000
,
0010
0000
0000
0000
0100
0000
3013
0001
1010
0100
0001
0100
1010
0000
0100
0011
,
2200
0000
0000
3300
0220
0000
0000
0330
0202
0000
0000
0303
0010
0000
0202
0000
,
0000
0303
0202
0000
0000
0303
2020
0000
3130
0001
2020
0001
0100
3030
1100
0000
,
0220
0000
0000
0330
0220
0000
0000
0330
2002
3003
0220
0330
2002
3003
2200
0000
,
0001
0001
0000
0010
0010
0000
0001
0001
0000
0010
0010
0000
0010
0000
0001
3300
,
1100
0010
0001
0100
1010
0001
0100
0010
1002
0000
0100
0000
0010
0000
0013
0000
,
1020
0000
0001
0030
1200
0000
0010
0301
0000
0001
0100
0001
0011
0100
1001
0010
,
1001
0100
0010
0001
1100
0000
0010
0200
0000
0310
0001
0100
1010
0100
0010
0001
,
1020
0000
0100
0000
1000
0000
0001
0030
1010
0100
0010
0001
1010
0100
0010
0001
,
1010
0100
1000
0100
2020
0000
0000
3030
1001
0010
0100
0010
2002
0000
3113
0000
,
2002
0000
0000
3003
0221
0000
0000
1330
0000
1000
0000
1000
0101
0010
1000
0010
,
0101
1000
0001
0010
2100
0000
3100
0010
0001
0100
0010
1000
0021
0000
0230
0000
,
1321
0001
0000
1000
1000
0000
0001
0001
0000
1000
1000
0000
0100
0000
1000
0000
,
0101
0101
0000
1100
1100
0000
0101
0101
0000
1100
1100
0000
0101
0000
1100
0030
,
1101
1101
0000
1110
1110
0000
0111
0111
0000
1110
1110
0000
0111
0000
1011
0000
,
2222
0000
0000
0000
,
0000
3333
0000
0000
;

//---------------dance-solo - Copied from----------------
#NOTES:
     dance-solo:
     Copied from:
     Hard:
     1:
     1.000,1.000,1.000,1.000,1.000,774.000,229.000,153.000,48.000,73.000:
000000
000000
000000
000000
,
200200
000000
000000
000000
300300
000000
000000
000000
200000
000000
000000
000000
300000
000000
100000
010000
001200
000000
000000
000000
100300
000000
000000
000000
200200
000000
000000
000000
300300
000000
000000
000000
,
000200
000000
200300
000000
300200
000000
200300
000000
300000
000000
100000
010000
100000
010000
001000
000100
,
111000
000000
010000
001000
010100
100000
000100
001000
110000
000000
010000
001000
100000
000000
000100
000000
,
001100
100000
010000
000100
101000
000000
100000
000000
010100
001000
010000
000000
110000
000000
001000
000000
,
010100
001000
100000
000000
110000
000000
000100
010000
001100
100000
010000
001000
100100
000000
001000
000000
,
100100
001000
010000
000000
100100
000000
000100
100000
001100
010000
001000
000000
100100
000000
100000
010000
,
101000
000100
001000
000000
010100
000000
001000
000100
110000
001000
100000
000000
100100
000000
000100
000000
,
010100
100000
001000
000000
011000
000000
010000
001000
100100
001000
000100
000000
010100
000000
100000
000100
,
110000
001000
000100
000000
010100
000000
000100
010000
100100
010000
001000
000000
101000
000000
100000
001000
,
110000
000100
010000
001000
010100
100000
001000
000100
101000
010000
000100
100000
011000
100100
011000
100000
,
011200
100000
001000
010000
001300
100000
000100
001000
010100
100000
001000
010000
000100
100000
010000
001000
,
010100
100000
000100
001000
010000
001000
010000
000100
110000
001000
000100
010000
100000
010000
000100
010000
,
101000
000100
010000
001000
100000
010000
001000
100000
010100
001000
100000
000100
001000
000100
010000
001000
,
110000
000100
010000
001000
100000
000100
010000
001000
100100
001000
010000
000100
010000
100000
000100
001000
,
110000
000100
010000
001000
100000
000100
001000
010000
001000
010000
100000
000100
001000
000100
010000
001000
,
010100
100000
010000
100000
001000
000100
010000
001000
100100
010000
001000
100000
010000
100000
000100
010000
,
001100
100000
001000
010000
100000
000100
010000
000100
011000
000100
010000
100000
001000
010000
100100
001000
,
010100
100000
010000
100000
001100
100000
000100
001000
100100
001000
010000
100000
011000
100000
010000
001000
,
200200
000000
000000
000000
300300
000000
000000
000000
200000
000000
000000
000000
300000
000000
100000
010000
001200
000000
000000
000000
100300
000000
000000
000000
200200
000000
000000
000000
300300
000000
000000
000000
,
000200
000000
200300
000000
300200
000000
200300
000000
300000
M00000
000000
000M00
000000
M00000
0M0000
00M000
,
M00M00
0M0000
00M000
0M0000
00M000
000M00
M00000
00M000
0M0M00
M00000
00M000
M00000
000M00
0M0000
00M000
0M0000
,
M00M00
0M0000
00M000
M00000
0M0000
M00000
00M000
000M00
M0M000
000M00
0M0000
000M00
00M000
0M0000
00M000
M00000
,
00MM00
000000
000000
000000
000000
000000
000000
M00000
000000
000000
000M00
000000
000000
M00000
0M0000
00M000
,
100100
010000
001000
010000
001000
000100
100000
001000
010100
100000
001000
100000
000100
010000
001000
010000
,
100100
010000
001000
100000
010000
100000
001000
000100
101000
000100
010000
000100
001000
010000
001000
100000
,
001100
010000
000100
100000
001000
100000
010000
001000
110000
000100
010000
001000
000100
100000
001000
010000
,
100100
010000
001000
100000
000100
100000
001000
010000
000100
100000
001000
010000
001000
100000
000100
010000
,
101000
010000
001000
000100
101000
010000
001000
010000
100100
001000
000100
010000
101000
010000
000100
010000
,
101000
010000
001000
010000
100100
001000
010000
000100
101000
000100
010000
001000
100100
001000
010000
001000
,
100100
010000
001000
010000
100100
010000
001000
010000
100100
001000
010000
001000
100100
010000
001000
010000
,
200100
000100
000000
000100
000000
000100
000000
000100
,
300100
000100
000000
010000
010000
000000
001000
001000
000000
100000
100000
000000
011000
000000
001100
000000
,
110000
001000
000100
010000
101000
000100
010000
001000
100200
000000
000000
000000
100000
000000
000300
000000
,
100200
000000
000000
000000
102300
000000
000000
003200
000000
100000
000300
100000
000200
000000
002300
000000
,
100100
013000
001000
010000
100200
000000
001000
010300
000000
010000
002000
000000
103200
000000
020300
000000
,
132000
000000
000000
000000
100000
000000
013000
001000
100000
001000
010000
000100
110000
001000
000100
010000
,
101000
010000
001000
000200
100000
010000
001300
000000
010200
000000
000000
000000
100000
000000
000300
000000
,
100200
000000
000000
000000
120300
000000
000000
030200
000000
100000
000300
000100
000200
000000
002300
000000
,
103100
010000
001000
010000
100200
000000
010300
001000
000000
001000
020000
000000
130200
000000
002300
000000
,
213000
000000
000000
000000
000100
000000
000000
000000
000100
001000
010000
001000
000100
000000
001000
000100
,
311000
000000
000000
000000
000000
000000
010000
000000
101000
000000
000000
000100
000000
000000
001000
000000
,
120000
000000
000000
000000
000000
000000
130000
000000
110000
000000
000000
010000
000000
000000
001000
000000
,
100100
000000
200200
000000
000000
300300
200200
000000
000000
300300
020200
000000
000000
000000
000000
030300
,
011000
000000
022000
000000
000000
033000
002200
100000
013000
001300
220100
001000
000100
000000
330100
100000
,
011100
000000
000000
000000
000000
000000
100000
000000
110000
000000
000000
000100
000000
000000
001000
000000
,
010200
000000
000000
000000
000000
000000
010000
000000
101300
000000
000000
100000
000000
000000
010000
000000
,
122000
000000
000000
000000
100000
033000
002200
000000
100000
000000
000000
003300
210000
000000
001000
000100
,
011000
000100
010000
301000
100100
000000
101000
110000
001100
100000
010100
001000
100100
000000
001000
010000
,
101100
000000
100000
010000
002100
000000
103000
010000
002100
000000
000000
003000
001100
000000
000100
000000
,
102000
000000
000000
000000
103000
000000
000100
000000
102000
000000
000000
003000
210000
000000
010000
300000
,
001100
000000
010000
001000
100200
000000
010300
001000
100200
000000
000000
000300
110000
000000
000100
000000
,
102000
000000
000000
003000
120000
000000
000000
030000
102000
000100
100000
013000
100100
000000
001000
010000
,
100100
000000
010000
001000
110200
000000
001000
010300
201100
000000
000000
300000
110000
000000
001000
000000
,
020100
000000
000000
000000
100000
030000
000100
000000
002000
000000
000000
000000
100000
000000
003000
000000
,
020000
000000
000100
000000
100000
000000
001000
000100
100000
000100
001000
000000
100000
000000
001000
000000
,
100000
000000
000100
000000
100000
000000
001000
000100
100000
001000
100000
000000
100000
000000
001000
000000
,
100000
000000
000100
000000
100000
000000
001000
001000
100000
001000
000100
000000
100000
000000
001000
000000
,
131100
000100
000000
101000
010100
000000
110000
001100
000000
011000
100100
000000
110000
000000
001100
000000
,
022000
000000
000000
033000
022000
000000
000000
033000
200200
000000
000000
000000
011000
300300
200200
000000
,
000000
300300
200200
000000
000000
300300
022000
000000
133000
010000
202000
000100
010000
303000
000200
100000
,
022300
000000
000000
033000
022000
000000
000000
033000
200200
300300
022000
033000
200200
300300
200200
000000
,
001000
000000
000000
000000
010000
000000
301300
000100
101000
010000
000100
010000
101000
000000
010000
001100
,
220000
000000
000000
330000
022000
000000
000000
033000
020200
000000
000000
030300
001000
000000
020200
000000
,
000000
030300
020200
000000
000000
030300
202000
000000
313000
000100
202000
000100
010000
303000
110000
000000
,
022000
000000
000000
033000
022000
000000
000000
033000
200200
300300
022000
033000
200200
300300
220000
000000
,
000100
000100
000000
001000
001000
000000
000100
000100
000000
001000
001000
000000
001000
000000
000100
330000
,
110000
001000
000100
010000
101000
000100
010000
001000
100200
000000
010000
000000
001000
000000
001300
000000
,
102000
000000
000100
003000
120000
000000
001000
030100
000000
000100
010000
000100
001100
010000
100100
001000
,
100100
010000
001000
000100
110000
000000
001000
020000
000000
031000
000100
010000
101000
010000
001000
000100
,
102000
000000
010000
000000
100000
000000
000100
003000
101000
010000
001000
000100
101000
010000
001000
000100
,
101000
010000
100000
010000
202000
000000
000000
303000
100100
001000
010000
001000
200200
000000
311300
000000
,
200200
000000
000000
300300
022100
000000
000000
133000
000000
100000
000000
100000
010100
001000
100000
001000
,
010100
100000
000100
001000
210000
000000
310000
001000
000100
010000
001000
100000
002100
000000
023000
000000
,
132100
000100
000000
100000
100000
000000
000100
000100
000000
100000
100000
000000
010000
000000
100000
000000
,
010100
010100
000000
110000
110000
000000
010100
010100
000000
110000
110000
000000
010100
000000
110000
003000
,
110100
110100
000000
111000
111000
000000
011100
011100
000000
111000
111000
000000
011100
000000
101100
000000
,
222200
000000
000000
000000
,
000000
333300
000000
000000
;
